5ちゃんねる ★スマホ版★ ■掲示板に戻る■ 全部 1- 最新50  

■ このスレッドは過去ログ倉庫に格納されています

レトロなCD-ROMゲーム統合スレッド

1 :1:02/07/02 16:25 ID:ccuAO+BI
とりあえず対象ハードはPCE、MEGA-CD、NEOGEO-CD、SS、PCFX、3DO、プレイディア辺りでよかですか?
マターリと逝きましょうヽ(´ー`)ノ

152 :Osu!!:02/07/18 22:05 ID:WJO4kuU6
data が正解
audio は音楽CD

153 :dra:02/07/18 22:21 ID:zWXqkepS
フォルダの設定はノータッチでいいんですか?

154 : :02/07/18 22:26 ID:nOaQJGHX
まさか全てのファイルを、ただのファイルとして焼いてるんじゃないだろうな。


155 :dra:02/07/18 22:31 ID:zWXqkepS
>154
やっぱ違いますか・・・?
すいません。何分初心者なもんで。ご迷惑かけます。

156 :前スレ? 460:02/07/19 00:01 ID:9pwscHLT
>>dra
どのライティングソフト使ってんのかな?
よく解らんけど、CDRwinならCUEファイル指定するだけで焼けるんじゃないの?


157 : :02/07/19 00:59 ID:cMdSkfg0
Osu!!

逆から読むとuso

158 : :02/07/19 08:50 ID:xW6+9v2I
夏ですな…

159 :(・∀・):02/07/19 09:49 ID:5RytqMVO
>>dra
ttp://www.na.sakura.ne.jp/~neat/pcfx/backup.htm

PC-FXだしかなり昔のテキストだけど、ここのstep4の行程で焼けるよ。
mp3→wav変換してiso、cueを同じフォルダ内に置くのは忘れないよーにネ

夏…、もうそんな時季ですか…

160 :_:02/07/19 11:57 ID:+F+BJKGd
夏のアレな方の対応、まっことごくろーサマでした。

161 :-=-=-=-=-:02/07/19 16:51 ID:KUDgTvEl
誰か セガメモリアルセレクションVol.1持ってる人いませんか?
ヘッドオン、ペンゴ、アップンダウン、フリッキーの選択が泣けます。やりたい。
ちなみにVol,2は忍者プリンセス一択ですねw


162 :dra:02/07/19 19:32 ID:CLy1FetG
みなさんレスどうもです。

今日、焼いてみました。
159さんが教えてくださってアドレスのとこの通りに。
cueファイルを読みこんで焼いてみましたが、ただのオーディオCDになっちまいました--;
もうちょっと自分で色々調べてやってみます。


163 :_:02/07/19 21:25 ID:GxtHLM7z
おお!とりあえず発見したので足跡。

164 :-:02/07/20 00:28 ID:RY7s7rg+
すいません、白サターンでコピーCD起動させてみたいんですけど
自動でサターンリングを読みにいかない場合、どうすればいいんですか?

165 :.:02/07/20 00:52 ID:/Cy9mAwL
>>164

>>15の方法じゃ駄目なの?

166 :164:02/07/20 01:03 ID:RY7s7rg+
はい。

167 :_:02/07/20 12:57 ID:E5MAUeWb
サターンキー持ってるやついないのか…

168 : :02/07/20 14:27 ID:+gK3VFfJ
>>164
どういうこと?
ウチ白サターンだけどちゃんと起動できるよ?


169 : :02/07/20 20:11 ID:EuAr3EwD
DRW

http://pc.2ch.net/test/read.cgi/perl/1007992564/517


170 :_:02/07/21 00:03 ID:NP+tvigY
シェンムーしてたら、なんか無性にタイムギャルやりたくなってしまいます。
たすけてー

171 :前スレ? 460:02/07/21 02:54 ID:ToCRr0YL
>>167
ハンドできないなら、買った方が良いよね。
俺はディスク交換するの面倒だから、最近買ったよ

>>MCD&SSユーザー
誰かおふでまとめて交換して〜ん

172 :( ´・ω・):02/07/21 04:13 ID:90CF9oRp
お仏蘭西のサイトからダウソした
シュビビンマン3をFireBurnerにて
焼いてみたが禿しく音ずれが( ´-ω-)・・・モウネル

173 :.:02/07/21 10:53 ID:m3hkjx8l
>>170
サターソのなら共有してるよ、探してみてホ

>>171
中古初代サターソ、パット2個付きを1500でゲット。・・・これでサターソ3台目(鬱
確かに安く売ってる場合が多いから、買った方が安いかもね。
初代ならハンドMOD簡単だし。

174 : :02/07/21 11:34 ID:m0NUopsW
>>171
サターンキーをどこで買ったかマジで教えてホスィ・・・

175 :前スレ? 460:02/07/21 14:19 ID:AVPs7Epq
>>174
(;゚ロ゚)ウヒイイイィィィィ


176 : :02/07/21 16:36 ID:NOW0SA5O
>>174
21pin用なら
ttp://www.lik-sang.com/catalog/product_info.php?category=67&products_id=283&

ちなみに漏れは昔普通に売ってる頃20pin用のヤシ買ったけどね
当時5kくらいした記憶が(;´д`)

177 : :02/07/21 21:23 ID:9jjyJqqx
>>176
21pin用って白サタ用だよね、まだ買えるんだ・・・、買ってみようかしら。

178 :前スレ? 460:02/07/22 01:41 ID:4sSjrdke
>>176
それだよ、俺が買った奴 青いの。
俺は国内で買ったけど… 力生良いね


>>177
白サタと同型のVサタでもイケルと思うよ

179 :前スレ? 460:02/07/22 01:42 ID:4sSjrdke
あれ? sage忘れ

180 : :02/07/22 15:52 ID:BhOGIGNI
20pinのSS-KEYがホスィなぁ…、海外で扱ってる通販サイトないかしら。
ひたすらググルってるんですが見つからないです(・ω・`)シボーンヌ

>>178サソの言う国内って、最近の話?

181 :前スレ? 460:02/07/22 16:18 ID:4sSjrdke
>>180
そだよ 1ケ月以内の話。


182 :180:02/07/22 17:20 ID:BhOGIGNI
海外だと送料高いと思ったが、AirMailだと$6程で済みそうだからモレも力生ケテー。
さて、中古屋巡りして白サタ探してくるかな。

183 :前スレ? 460:02/07/22 18:48 ID:4sSjrdke
>>180
この前、ハードオフで白サタ ¥100でゲットしたよ。
外見はキズだらけだったけど、中身はまったく問題無し( ^▽^)

まぁ、当たり外れがあるだろうけど、近所にハードオフあれば行ってみては?

184 :180:02/07/22 21:54 ID:gSyIuYpb
SS-KEY買ってみますた、日本円で\3,104(送料込み)になりますね、今日だと。
airmailなので到着は7〜30日後と言うアバウト日数、ホントに届くか少々不安だ
ったりして(;´Д`)

>>183
白サタ \100円…ヤス!!。

185 :pp:02/07/23 01:38 ID:8Nz4aOJu
犯人はヤス

186 : :02/07/23 01:47 ID:Sgc0oDo+
オッサンハケーン

187 :PP:02/07/23 14:45 ID:dLdcWEYg
A-SATURNって今、どんな感じなの?
ゲームラボ読んだらQ&Aにサターンエミュで使う為にサターンのBIOSを取り出したい
のでその方法を。とか書いてた。
解答はPARとか改造ツールを使うだったけど。そろそろ2Dゲームぐらいならまとも
に動いてるんだろか。

188 : :02/07/23 18:54 ID:852mWWTQ
SSEMUは今一番地味に活発に開発されてるよ
あー、早く高速でデビルサマナーやりてえ

189 :PP:02/07/24 09:21 ID:jNbP4OoY
>>188
それはA-SATURN以外のエミュ?
今までの海外サタソエミュはSH2のCPUエミュをやってなかったりしてたから、最近
は全然調べてなかったです。

190 :(・∀・):02/07/24 11:11 ID:KmwHccgp
シャイニングIIIシナリオ1〜3をまとめて圧縮したヤシ、シナリオ2が二つ入ってる
イメージが出回ってるので注意を(シナリオ3が無い)
てかモレの責任です(´Д`;)、交換した相手には謝ってシナリオ3だけ渡しましたが
今、検索してみたら、それらしいイメージを交換してない人の共有に見たので・・・
500MB以下のイメージ持ってる人、確認してみて下さい。おながいします

191 ::02/07/24 22:42 ID:dDS6AzP4
質問したいんですが・・・
MXでiso+mp3+cueでの天外魔境2をダウンしました。今までのこのスレの書きこみ見て、CDRWinでcueファイルを指定して焼くとのことだけは分かったのですが、そうすると・・・
「Error:'START DAO RECORDING'command Failed on device 1:0:0
CueSheet was rejected by the CD-ROM recorder」
とエラーが表示されて焼けません。
これはどこが悪いんでしょうか?
↑のエラーにある通りcueファイルに何か原因があるのかな?と思って見たら
「FILE "Track 1.wav" WAVE
TRACK 01 AUDIO
INDEX 01 00:00:00
TITLE "Track 1"」
と書かれた所の
「INDEX 01 [00:00:00]」
↑この部分がこの後も全部00:00:00になってます。
これがやっぱいけないんでしょうか?


192 : :02/07/25 09:35 ID:CI39uWVs
>>191
WPNPで大量に出回ってる天外IIだね。
確か前スレで、そのファイルは焼けないって結論だった気がする。

193 :前スレ? 460:02/07/25 10:45 ID:KiUyDi34
>>191
天外2 キューシート

FILE "tengai2.bin" BINARY
TRACK 01 AUDIO
INDEX 01 00:00:00
TRACK 02 MODE1/2352
PREGAP 00:03:00
INDEX 01 00:44:71
TRACK 03 AUDIO
PREGAP 00:02:00
INDEX 01 22:37:52
TRACK 04 AUDIO
INDEX 01 24:40:00
TRACK 05 AUDIO
INDEX 01 26:42:51
TRACK 06 AUDIO
INDEX 01 28:09:44
TRACK 07 AUDIO
INDEX 01 28:55:17
TRACK 08 AUDIO
INDEX 01 30:32:27
TRACK 09 AUDIO
INDEX 01 32:43:01
TRACK 10 AUDIO
INDEX 01 33:42:15
TRACK 11 AUDIO
INDEX 01 34:29:19
TRACK 12 AUDIO
INDEX 01 35:53:18
TRACK 13 AUDIO
INDEX 01 37:20:73
TRACK 14 AUDIO
INDEX 01 38:49:41
TRACK 15 AUDIO
INDEX 01 40:14:11
TRACK 16 AUDIO
INDEX 01 42:05:05
TRACK 17 AUDIO
INDEX 01 43:19:54
TRACK 18 AUDIO
INDEX 01 44:46:51
TRACK 19 AUDIO
INDEX 01 46:37:66
TRACK 20 AUDIO
INDEX 01 51:07:47
TRACK 21 AUDIO
INDEX 01 51:55:67
TRACK 22 AUDIO
INDEX 01 52:34:26
TRACK 23 AUDIO
INDEX 01 54:54:49
TRACK 24 AUDIO
INDEX 01 57:42:14
TRACK 25 AUDIO
INDEX 01 59:38:02


194 :.:02/07/25 15:58 ID:s0TT/RIT
天外2、リアルでやった時、ちょっとプレイをサボったら本体メモリのデータが
消えて泣いた記憶が…(´Д`)
オモロかったからもう一度最初からやってみるかな・・・

195 : :02/07/25 23:15 ID:ter6qG8f
最近、ぜんぜんSSとかPCEにQ入らんと思ったら、共有すんの
忘れてたよ!(゚∀゚;)

196 : :02/07/26 03:03 ID:3doNrffi
IDが3DOですがなにか?

197 : :02/07/26 06:15 ID:8MNDBxIv
>>196
3DO買って共有シル

198 :(・∀・):02/07/26 15:38 ID:/Rjmkvze
神より MCDキャプ翼 JP版を貰いますた、サラバUS版。

にしてもメガCDってちっとも話題にあがりませんね。昔、ウルフチームマニア
だったので、同社タイトルの多いメガCDは何か妙に思い入れがあります。

タイトー物もステキ☆ヽ(´ー`)ノ

199 :    :02/07/26 15:49 ID:ETVPLqbJ
>>198
(・∀・)ニヤニヤ

今日は暇だったので某氏が共有してないサターソの吸い出しを黙々と(笑
時間かけて圧縮してるので一気に共有できないけど
気づいたら取りに来てちょヽ(´ー`)ノ

次の暇な時はもうひとりの某氏の未共有PCEでも吸い出しますかな・・・

(;´ー`) 隙間商売な漏れ・・・

200 :立花の番長  ◆67u.KIKU :02/07/26 17:51 ID:Aie64sNV
.             _________________
.            <            ヽ
.             ヽヾヾ__ ゞ..__/ .ノヽ丶|
.             │  丶     ./   .|         >>198  ゴリラはすっこんでろ
.             │         \  |         >>199  じゅ、順リン
.             │         │ .|         >>201 鼻割り箸するぞシャバ僧
.            ___|___ヾ_ ノ_________ |_| )         >>202 はい、そこの少年。左によって止まりなさい   
.            ヽ__丿|ヽ_____丿   |_|ρ         >>203 ア〜ン!?
.             │ ノ│ヽ   丿 _ |          >>204 吐いたツバ飲まんとけやコラ
.             丶  ψ   │   |          >>205 上田!影武者してんじゃねぇ!
.              ヽ″△`ゝ     ..|          >>206 しょせんお前は顔崎太
.               |ヽ   ./   .. |          >>207以下はボンタン脱げや
               .| ──
.             ■■     ■■■■
.       ■■■■■■■■■■■■■■■■■■    
.       ■■■■■■■■○■■■■■■■■■

.          菊 リ ン 2 0 0 ゲ ッ ト

201 :ヽ(´ー`)ノ:02/07/26 18:02 ID:nH3uCr0L
話題にはあがらないけど、MEGA-CDを共有してる人は増えてる気がする。
MEGA-CDマンセーな自分としては嬉しい限りヽ(´ー`)ノ

>>199
自分もキャプ翼他貰いますた。ありがd(・∀・)

48 KB
■ このスレッドは過去ログ倉庫に格納されています

★スマホ版★ 掲示板に戻る 全部 前100 次100 最新50

read.cgi ver 05.04.02 2018/11/22 Walang Kapalit ★
FOX ★ DSO(Dynamic Shared Object)